Търсачка
inbox
>Игри   >Онлайн Радио   >Правила   >Заявки   >Правила за Критици   >Правила за Модератори

Начало Торенти Качи Партньори Субтитри Потребители Статистики Новини Форум


Торент детайли
Име Highlander / Шотландски боец *1986*
Торент
Хаш a4d4f84661e3bc283b0d1d3acc60f13b0cd19dd2
Сподели във facebook share_on_facebook    Сподели във facebook
Facebook
Субтитри Свали субтитри
Филмът е озвучен на български НЕ
Кой каза благодаря
Коефицента ви е Коефицента ви ще бъде47.87 след свалянето на торента , коефицента ви сега е 47.87
Реклама
Постер
Скрийншоти
Описание
Highlander  / Шотландски боец  *1986*



Nieśmiertelny - Highlander *1986* (Director's Cut) (60 FPS)
==================================================
UWAGA: Jest to wersja *****60 FPS*****
============================

gatunek: Fantasy
produkcja: USA,Wielka Brytania
premiera: 31 grudnia 1986 (Polska) 7 marca 1986 (świat)
reżyseria: Russell Mulcahy
scenariusz: Larry Ferguson,Gregory Widen,Peter Bellwood

***************************

Сценарист : Грегъри Уилдън
Режисьор : Ръсел Мълкахи
В ролите : Кристоф Ламбер , Шон Конъри и Кланси Браун
Държава : САЩ, Великобритания.
Година: 1986
Жанр : Екшън, Фентъзи, Sci-Fi
Времетраене : 1 ч 51 мин
Аудио : английско

Резюме :
Шотландски боец е фантастичен екшън с режисьор Ръсел Мълкахи базиран на оригиналния сценарий на Грегъри Уилдън.
Конър Маклауд е шотландски боец, роден през 1518 година. Оживявайки след смъртоносна рана, той е прокуден от своето село, защото не е обикновен човек - той е безсмъртен! Никой от жителите на Земята не подозира съществуването не само на Маклауд, но и на десетки други като него. На помощ на шотландеца се притича Хуан Санчес Рамирес, който му разкрива ужасяващата истина, че смъртта може да го застигне, само ако главата му се отдели от тялото! А точно това е което желае всеки един от останалите безсмъртни. Защото след обезглавяването силата на убития се поглъща от неговия убиец, докато остане САМО ЕДИН... И оцелелият през вековете ще получи голямата награда-да царува над цялата планета.

BG SUBTITLE: http://www.podnapisi.net/subtitles/bg-highlander-1986/Yro

*******************************

http://www.imdb.com/title/tt0091203/
http://www.filmweb.pl/Niesmiertelny
http://www.rottentomatoes.com/m/highlander/
https://en.wikipedia.org/wiki/Highlander_%28film%29
https://www.youtube.com/watch?v=omOZyLmNMJs

Obsada:

Christopher Lambert ... Connor MacLeod / Russell Edwin Nash
Roxanne Hart ... Brenda J. Wyatt
Clancy Brown ... Victor Kruger / Kurgan
Sean Connery ... Juan Sanchez Villa-Lobos Ramirez
Beatie Edney ... Heather MacLeod

Storyline:

In New York, the owner of a sophisticated antique shop Russell Edwin Nash is challenged to a sword fight in the parking lot of the Madison Square Garden by a man called Iman Fasil that is beheaded by Russell. He hides his sword and is arrested by the police while leaving the stadium. Russell recalls his life in the Sixteenth Century in Scotland, when he is Connor MacLeod and is deadly wounded in a battle against another Clan. However he surprisingly survives and his Clan believes he has a pact with the devil and expels him from their lands. Then he meets Juan Sanchez Villa-Lobos Ramirez that explains that he is immortal unless he is beheaded. Further, the immortals dispute a game killing each other and in the end only one survives receiving a price with the power of the other immortals. Russell is released by the police, but the snoopy forensic agent Brenda J. Wyatt is attracted by the case since she founds fragments of an ancient Katana and follows Russell. But the also immortal ...

Opis:

Urodzony w górzystej Szkocji w 1518 roku, Connor Macleod jest nieśmiertelny. Kiedy podczas bitwy z wrogim klanem zostaje śmiertelnie ugodzony, ale nie umiera, przerażeni członkowie jego klanu skazują go na banicję. Błąkając się po górach Connor napotyka Ramireza, który również jest nieśmiertelny. Dowiaduje się od niego, że na świecie jest kilku takich jak oni toczących między sobą walkę o główną nagrodę, którą otrzyma ostatni z nieśmiertelnych. Jedyną możliwością wyeliminowania nieśmiertelnego ze świata jest odcięcie mu głowy mieczem.

Screenshot:







General
Format                                   : Matroska
Format version                           : Version 2
File size                                : 11.9 GiB
Duration                                 : 1h 56mn
Overall bit rate                         : 14.6 Mbps
Movie name                               : Highlander.Director's.Cut.1986.720p.60FPS.Bluray Rip by Sonda [AT-Team]
Encoded date                             : UTC 2015-08-20 19:13:09
Writing application                      : mkvmerge v5.7.0 ('The Whirlwind'wink.gif built on Jul  8 2012 20:08:51
Writing library                          : libebml v1.2.3 + libmatroska v1.3.0

Video
ID                                       : 1
Format                                   : AVC
Format/Info                              : Advanced Video Codec
Format profile                           : High@L4.1
Format settings, CABAC                   : Yes
Format settings, ReFrames                : 9 frames
Codec ID                                 : V_MPEG4/ISO/AVC
Duration                                 : 1h 56mn
Bit rate                                 : 12.0 Mbps
Width                                    : 1 280 pixels
Height                                   : 692 pixels
Display aspect ratio                     : 1.85:1
Frame rate mode                          : Constant
Frame rate                               : 60.000 fps
Original frame rate                      : 59.940 fps
Color space                              : YUV
Chroma subsampling                       : 4:2:0
Bit depth                                : 8 bits
Scan type                                : Progressive
Bits/(Pixel*Frame)                       : 0.226
Stream size                              : 9.56 GiB (80%)
Title                                    : 60FPS Rip by Sonda
Writing library                          : x264 core 146 r2538 121396c
Encoding settings                        : cabac=1 / ref=9 / deblock=1:-1:-1 / analyse=0x3:0x113 / rc=2pass
Default                                  : Yes
Forced                                   : No
Color primaries                          : BT.709
Transfer characteristics                 : BT.709
Matrix coefficients                      : BT.709

Audio #1
ID                                       : 2
Format                                   : AC-3
Format/Info                              : Audio Coding 3
Mode extension                           : CM (complete main)
Format settings, Endianness              : Big
Codec ID                                 : A_AC3
Duration                                 : 1h 56mn
Bit rate mode                            : Constant
Bit rate                                 : 448 Kbps
Channel(s)                               : 6 channels
Channel positions                        : Front: L C R, Side: L R, LFE
Sampling rate                            : 48.0 KHz
Bit depth                                : 16 bits
Compression mode                         : Lossy
Stream size                              : 374 MiB (3%)
Title                                    : AC3 5.1 Lektor PL
Language                                 : Polish
Default                                  : Yes
Forced                                   : Yes

Audio #2
ID                                       : 3
Format                                   : AC-3
Format/Info                              : Audio Coding 3
Mode extension                           : CM (complete main)
Format settings, Endianness              : Big
Codec ID                                 : A_AC3
Duration                                 : 1h 56mn
Bit rate mode                            : Constant
Bit rate                                 : 640 Kbps
Channel(s)                               : 6 channels
Channel positions                        : Front: L C R, Side: L R, LFE
Sampling rate                            : 48.0 KHz
Bit depth                                : 16 bits
Compression mode                         : Lossy
Stream size                              : 534 MiB (4%)
Title                                    : AC3 5.1 ENG
Language                                 : English
Default                                  : No
Forced                                   : No

Audio #3
ID                                       : 4
Format                                   : DTS
Format/Info                              : Digital Theater Systems
Mode                                     : 16
Format settings, Endianness              : Big
Codec ID                                 : A_DTS
Duration                                 : 1h 56mn
Bit rate mode                            : Constant
Bit rate                                 : 1 509 Kbps
Channel(s)                               : 6 channels
Channel positions                        : Front: L C R, Side: L R, LFE
Sampling rate                            : 48.0 KHz
Bit depth                                : 24 bits
Compression mode                         : Lossy
Stream size                              : 1.23 GiB (10%)
Title                                    : DTS 5.1 ENG
Language                                 : English
Default                                  : No
Forced                                   : No

Text #1
ID                                       : 5
Format                                   : PGS
Muxing mode                              : zlib
Codec ID                                 : S_HDMV/PGS
Codec ID/Info                            : The same subtitle format used on BDs/HD-DVDs
Title                                    : Napisy PL
Language                                 : Polish
Default                                  : No
Forced                                   : No

Text #2
ID                                       : 6
Format                                   : PGS
Muxing mode                              : zlib
Codec ID                                 : S_HDMV/PGS
Codec ID/Info                            : The same subtitle format used on BDs/HD-DVDs
Title                                    : Napisy ENG
Language                                 : English
Default                                  : No
Forced                                   : No

Source:
A/V-Highlander 1986 [Blu-ray disc (custom) BD50 1080p]
Lektor PL - HDBT


Категория Blu-Ray
Рейтинг
  • Currently 0.00/5
Rating: 0.0 out of 5.0 (Votes: 0) For your upload!

Големина 11.91 GB
Покажи/Скрий файловете
11 files
Добавен 21/08/2015
Скорост 0 KB/sec
Свален 41 пъти
Пиъри Сийдъри: 120, Лийчъри: 564 = 684 Пиъри
Подобни торенти



This site is a private one! None of the files shown here are actually hosted on this server. The links are provided solely by this site's users. The administrator of this site: http://www.novaset.net cannot be held responsible for what its users post, or any other actions of its users. You may not use this site to distribute or download any material when you do not have the legal rights to do so. It is your own responsibility to adhere to these terms.При нарушаване на нечии авторски права, пуснете съобщение до report.novaset@gmail.com или използвайте опцията Докладвай Торент в тракера.
Партньори
    

[  Design By: Friendly_Styles  ]  [  xbtit 2.2.1 By: Btiteam ]
[ Queries: 26|0 ] - [ Script Execution: 0.3363 sec. ] - [ GZIP: enabled ]